#TITLE:Heroes of Our Time;
#SUBTITLE:Ultra Beatdown;
#ARTIST:Dragonforce;
#TITLETRANSLIT:;
#SUBTITLETRANSLIT:;
#ARTISTTRANSLIT:;
#CREDIT:;
#BANNER:french.jpg;
#BACKGROUND:french-bg.jpg;
#LYRICSPATH:;
#CDTITLE:dark.gif;
#MUSIC:DragonForce - Heroes of Our Time.mp3;
#OFFSET:-0.065;
#SAMPLESTART:170.948;
#SAMPLELENGTH:29.980;
#SELECTABLE:YES;
#BPMS:0.000=200.010,800.000=175.000,1068.000=200.000,1324.000=190.000,1328.000=180.000,1332.000=170.000,1336.000=150.000,1340.000=100.000,1341.000=99.000,1342.000=98.000,1343.000=97.000,1344.000=96.000,1345.000=95.000,1346.000=94.000,1347.000=93.000,1348.000=92.000,1349.000=91.000,1350.000=90.000,1351.000=135.000,1352.000=132.800,1352.063=132.000,1352.125=130.000,1352.188=126.800,1352.250=123.600,1352.313=121.200,1352.375=118.000,1352.438=114.800,1352.500=112.400,1352.563=109.200,1352.625=106.000,1352.688=102.800,1352.750=100.400,1352.813=97.200,1352.875=94.000,1352.938=90.800,1353.000=88.400,1353.063=85.199,1353.125=81.999,1353.188=78.799,1353.250=75.599,1353.313=73.199,1353.375=69.999,1353.438=66.799,1353.500=63.599,1353.563=60.399,1353.625=57.199,1353.688=54.799,1353.750=51.599,1353.813=48.399,1353.875=45.199,1353.938=41.999,1354.000=39.599,1354.063=36.399,1354.125=33.199,1354.188=29.999,1354.250=26.799,1354.313=24.399,1354.375=21.199,1354.438=17.999,1354.500=15.599,1354.563=12.399,1354.625=9.179,1354.688=7.159,1354.750=6.159,1354.813=3.499,1354.875=0.999,1354.938=150.000;
#STOPS:;
#BGCHANGES:;
// cache tags:
#FIRSTBEAT:0.000;
#LASTBEAT:1355.250;
#SONGFILENAME:Songs/Music V.I.P ^_^/Heroes of Our Time/french.sm;
#HASMUSIC:1;
#HASBANNER:1;
#MUSICLENGTH:432.988;
// end cache tags

//---------------dance-single - ----------------
#NOTES:
     dance-single:
     :
     Challenge:
     20:
     1.000,1.000,1.000,0.118,1.000,4581.000,455.000,51.000,2.000,0.000:
0101
0101
0101
0010
0100
0001
1000
0010
,
0210
0000
0001
0010
0001
0000
1000
0000
0010
0000
1000
0000
0001
0000
1300
0000
,
0110
0000
0001
0010
1100
0000
0010
0000
0001
0000
1000
0000
0010
0000
1000
0000
,
1001
0000
0100
0010
0001
0000
0100
0000
2010
0000
0001
0000
0100
0000
3000
0000
,
0102
0000
1000
0100
1000
0000
0010
0000
0100
0000
0010
0000
1000
0000
0013
0000
,
1001
0000
0100
0010
0001
0000
0100
0000
1000
0000
0001
0000
0110
0000
0110
0000
,
1010
0000
0001
0100
1000
0000
0001
0000
0100
0000
1000
0000
0001
0000
0010
0000
,
1001
0000
2002
0000
0000
0000
0000
3003
1010
0000
2020
0000
0000
0000
0000
3030
,
0010
0100
0001
1000
0010
0100
0010
0001
0100
0010
1000
0100
0010
0001
0100
0010
,
0100
0000
1000
0000
0001
0000
0100
0000
0010
0000
1000
0000
0001
0000
0100
0000
0001
0010
0100
0000
0001
0010
1000
0000
0001
0100
0010
0000
1000
0010
0100
0000
,
0001
0010
0001
0010
0100
0001
0100
0001
0010
1000
0010
1000
0100
0010
0100
0010
,
1001
0000
0100
0001
1010
0000
0001
0010
1100
0000
0010
1000
0101
0000
0010
0100
,
1001
0010
0001
0100
1000
0010
0100
0001
1000
0010
0100
1000
0001
0010
0001
1000
,
0010
0000
0100
0000
0001
0000
1000
0000
0100
0000
0001
0000
1000
0000
0010
0000
0100
0010
0100
1000
0100
0010
0100
1000
0010
0100
0010
0001
0010
0100
0010
0001
,
1100
0010
0001
1000
0100
0010
1000
0001
0100
0010
1000
0010
0001
0100
1000
0010
,
0001
1000
0010
0100
1000
0001
0100
0001
1000
0010
0100
0001
1000
0010
0100
0001
,
1100
0010
0001
1000
0100
0010
0001
1000
0100
0010
0001
0100
0010
0001
0000
0100
0010
0001
1000
0010
0100
0001
0010
0100
1000
0001
0010
0100
1000
0010
0100
0001
,
0010
0100
0001
1000
0010
0100
0001
1000
0100
0010
0001
1000
0010
0100
0001
1000
0010
0100
0001
1000
0010
0001
1000
0010
0100
0000
0001
0000
0010
0000
0100
0000
,
1000
0100
0010
0001
0100
0010
1000
0100
0010
0001
0010
0100
1000
0010
0100
0001
0010
0100
0001
0010
0100
1000
0010
0100
,
2001
0010
0100
0010
0001
0100
0010
0100
0001
0010
0100
0010
0001
0100
3010
0000
,
0110
0001
1000
0010
0100
0001
1000
0100
0010
0001
0100
0010
1000
0001
0100
0010
0100
1000
0010
0000
0000
0000
0000
0000
,
1100
0001
1100
0010
1100
0001
1100
0010
,
0100
0001
0100
0001
0100
0001
0100
0001
0100
0001
0100
0001
0100
0001
0100
0001
,
0010
0100
0010
0100
1010
0000
0000
0000
0001
1000
0001
1000
0011
0000
0000
0000
,
1001
1001
1001
1010
1010
1010
0110
0110
0110
0101
1000
0100
,
0011
0011
0011
0101
0101
0101
1010
0001
1000
0110
0001
0010
,
1100
1100
1100
0011
0011
0011
1010
1010
1010
0110
0001
0100
,
1001
0011
1001
0110
1100
0110
0101
0010
1000
0110
0001
0100
,
1010
1010
1010
0110
0110
0110
0101
0101
0101
1001
0010
0001
,
1100
1100
1100
1001
1001
1001
0110
1000
0010
0101
1000
0100
,
0011
0011
0011
1100
1100
1100
0110
0110
0110
0101
1000
0001
,
1010
1100
1010
0101
0011
0101
1001
0100
0010
0101
0010
1000
,
0011
0000
0100
0000
1000
0000
0100
0000
0010
0000
0001
0000
1010
0000
0100
1010
0100
0000
0001
0000
0010
0000
0100
0000
,
2002
0000
0000
0000
,
3003
0000
0000
0000
1100
0001
0000
0000
1100
0010
0000
0000
1100
0010
0000
0000
1100
0001
0000
0000
1100
0001
0000
0000
1100
0010
0000
0000
1100
0010
0000
0000
,
0110
0010
0010
0100
0100
0100
0010
0010
,
0010
0100
0100
0100
0010
0010
0010
0100
,
0110
0001
1000
0010
0100
0010
0001
1000
0010
0100
0010
0001
1000
0010
0100
0001
,
1001
0000
1001
0000
0001
0010
0001
0000
0101
0000
0101
0000
0100
0010
0100
0000
,
1010
0001
0100
0010
0001
0010
0100
0001
0010
0100
1000
0010
0100
0001
1000
0010
,
0110
0000
0110
0000
0100
1000
0100
0000
0101
0000
0101
0000
0001
1000
0001
0000
,
0020
0000
0100
0000
1000
0100
0001
1000
0100
0000
0001
0000
1000
0100
0001
0100
,
1000
0000
0100
0000
0001
0100
1000
0100
0001
0000
0100
0000
1000
0100
0031
1000
,
0100
0001
0100
0001
0100
1000
0100
0001
0010
1000
0010
1000
0010
0001
0010
1000
,
0101
0000
0101
0010
1100
0000
1100
0000
0110
0000
0110
1000
0011
0000
0011
0000
,
0110
1000
0001
0100
0010
0100
1000
0001
0100
0010
0100
1000
0001
0100
0010
1000
,
1001
0000
1001
0000
1000
0100
1000
0000
1010
0000
1010
0000
0010
0100
0010
0000
,
0101
1000
0010
0100
1000
0100
0010
1000
0100
0010
0001
0100
0010
1000
0001
0100
,
0110
0000
0110
0000
0010
0001
0010
0000
1010
0000
1010
0000
1000
0001
1000
0000
,
0110
0001
1000
0010
0100
0001
1000
0010
0100
0001
1000
0010
0100
0001
1000
0010
,
0100
0001
0010
0100
1000
0001
0010
0100
1000
0001
0010
0100
1000
0001
0010
0100
,
1000
0010
1000
0010
1000
0010
0100
1000
0100
1000
0100
1000
0010
0001
0010
0001
,
1000
0010
1000
0010
0001
1000
0001
1000
0100
0001
0100
0001
0010
0100
0010
0100
,
1001
0001
1000
1100
0010
0010
1000
1000
,
0001
0001
1100
0100
0011
0010
1100
0100
,
1001
0010
1000
0000
0001
0000
0011
0000
1010
0000
0010
0000
1000
0000
1000
0000
,
0001
0010
0001
0000
0100
1000
0100
0000
0010
0100
0010
0000
1100
0001
1000
0000
,
0110
1000
0101
0011
1000
0010
0101
0010
,
1001
0101
1000
0100
0011
0001
1100
0101
,
1000
0100
1000
0100
1000
0100
1001
0010
0001
0010
0001
0010
1001
0100
1000
0100
,
1001
0010
0001
0010
0101
1000
0100
1000
0110
0001
0010
0001
1010
0000
0100
0000
,
0110
0001
1100
0101
0101
1000
0110
0001
,
1010
0100
0011
1000
0101
0010
1100
0001
,
0110
0001
1000
0010
0001
1000
0001
0100
0010
1000
0100
0010
1000
0001
0100
1000
,
0010
0001
0010
1000
0100
0010
0001
0100
1000
0001
0100
1000
0010
0001
0010
0100
,
1001
0000
0000
0000
0101
0000
1100
0001
1100
0000
0110
0000
0011
0000
1010
0000
,
0110
1001
0101
0011
1100
0110
1010
1100
,
1001
0000
0010
0100
0001
0010
0100
1000
0010
0100
0001
0010
1000
0100
0010
0001
,
0100
1000
0001
0010
1000
0001
0010
0100
0001
1000
0010
0100
0010
0000
0000
0000
,
0110
0000
0001
0000
1000
0100
0010
0001
0100
0000
0010
0000
1000
0001
0100
1000
,
0010
0000
0001
0000
0100
0010
0001
0100
1000
0000
0010
0000
0100
1000
0001
0100
,
0010
1000
0010
1000
0010
1000
0001
0100
0001
0100
0001
0100
0010
0001
0010
0001
,
0100
0010
0100
0010
0100
0010
1000
0001
1000
0001
1000
0001
1000
0001
1000
0001
,
1010
0000
0100
0000
0001
0010
0100
0001
0010
0000
1000
0000
0001
0010
0100
1000
,
0010
0000
0001
0000
1000
0100
1000
0010
0100
0000
0001
0000
1000
0001
0010
1000
,
0100
0010
1000
0001
0100
0010
1000
0001
0100
0010
0100
1000
0001
0100
0010
0001
,
1000
0100
1000
0100
1000
0100
1000
0100
0010
1000
0010
1000
0010
1000
0010
1000
,
0101
0000
0010
0000
1000
0010
0100
0010
1000
0000
0001
0000
0100
0010
0100
1000
,
0001
0000
0010
0000
0100
0001
1000
0010
0100
0000
0001
0000
0010
0100
0001
0010
,
1100
0000
0001
0000
0010
0100
0001
1000
0100
0000
1000
0000
0010
0100
0010
0001
,
1000
0000
0010
0000
0100
0001
1000
0001
0010
0000
0100
0000
0010
0001
1000
0100
,
1010
0000
0100
0000
0001
0100
0010
0100
0001
0000
1000
0000
0010
0100
0010
0001
,
1100
0000
0001
0000
0010
1000
0001
0100
0010
0000
1000
0000
0100
0010
1000
0100
,
0011
0000
1000
0000
0100
0010
1000
0001
0010
0000
0001
0000
0100
0010
0100
1000
,
0011
0000
0100
0000
0010
1000
0001
1000
0100
0000
0010
0000
0100
1000
0001
0010
,
1100
0000
0010
0000
0001
0100
0010
1000
0001
0000
0100
0000
1000
0001
0100
1000
,
0011
0000
0100
0000
1000
0001
0100
0010
0001
0000
0010
0000
1000
0001
1000
0100
,
0010
1000
0010
1000
0010
1000
0010
1000
0010
1000
0010
1000
0010
1000
0010
1000
,
0001
0010
0001
0010
0001
0010
0001
0010
0001
0010
0001
0010
0001
0010
0001
0010
,
1100
0001
0010
1000
0001
0100
0010
1000
0001
0100
0010
0001
0100
1000
0010
0100
,
0010
1000
0001
0100
0010
0001
1000
0010
0100
1000
0001
0100
0010
0001
0010
0100
,
2002
0000
0000
0000
0000
0000
0000
0000
0000
0000
0000
0000
0000
0000
0000
0003
,
3010
0000
0000
0000
0200
0000
0000
0300
,
0110
0001
0010
0001
0010
0001
0010
0001
0010
0001
0010
0001
0010
0001
0010
0001
,
1100
0010
0100
0010
0100
0010
0100
0010
0100
0010
0100
0010
0100
0010
0100
0010
,
1001
0100
1000
0100
1000
0100
1000
0100
1000
0100
1000
0100
1000
0100
1000
0100
,
0001
1000
0010
0100
0001
0010
0100
1000
0010
0100
0001
0010
1000
0001
0010
1000
,
0110
0001
0100
0001
0100
0001
0100
0001
0100
0001
0100
0001
0100
0001
0100
0001
,
1010
0100
0010
0100
0010
0100
0010
0100
0010
0100
0010
0100
0010
0100
0010
0100
,
1001
0010
1000
0010
1000
0010
1000
0010
1000
0010
1000
0010
1000
0010
1000
0010
,
1000
0100
0010
0001
0010
0100
1000
0010
0100
0001
0100
0010
1000
0100
0010
0001
0100
0010
1000
0100
0010
1000
0001
0010
,
0100
0001
1000
0010
0100
0010
1000
0001
0100
0010
0001
1000
0100
1000
0001
0010
,
0001
0100
0010
1000
0001
0100
0010
0001
0100
0010
1000
0100
0001
1000
0010
0100
,
1000
0010
0100
0001
0010
0100
0001
1000
0010
0100
0010
0001
0100
1000
0010
0100
,
0010
1000
0010
0100
1000
0001
0100
0010
1000
0001
0100
0010
0100
1000
0010
0100
,
0010
1000
0010
1000
0010
1000
0001
0010
0001
0010
0001
0010
0100
0001
0100
0001
,
1000
0010
0100
1000
0010
0100
0001
0010
0001
0100
0010
0001
1000
0010
1000
0100
,
0011
0110
1100
0110
0011
0110
1100
0110
,
0101
1001
1010
1001
0101
1001
1010
1001
,
0010
0100
0010
0100
0010
0100
0010
0100
,
0010
0100
0110
0000
1100
0000
0101
0000
,
0101
1000
0010
0100
0001
0100
1000
0010
0100
0001
0100
1000
0010
0100
0001
1000
,
1010
0000
1010
0000
1000
0100
1000
0000
1001
0000
1001
0000
0001
0100
0001
0000
,
0110
1000
0001
0100
1000
0100
0001
1000
0100
0001
0010
0100
0001
1000
0010
0100
,
0101
0000
0101
0000
0001
0010
0001
0000
1001
0000
1001
0000
1000
0010
1000
0000
,
0200
0000
0001
0000
0010
0001
1000
0010
0001
0000
1000
0000
0010
0001
1000
0001
,
0010
0000
0001
0000
1000
0001
0010
0001
1000
0000
0001
0000
0010
0001
1300
0010
,
1000
0100
1000
0001
0010
0001
1000
0100
0010
0100
0001
0010
0001
1000
0010
0001
,
0100
0001
1000
0100
0010
0001
1000
0010
0100
0001
1000
0010
0100
1000
0010
1000
,
0101
0010
1000
0001
0100
0001
0010
1000
0001
0100
0001
0010
1000
0001
0100
0010
,
1010
0000
1010
0000
0010
0001
0010
0000
0110
0000
0110
0000
0100
0001
0100
0000
,
1001
0010
0100
0001
0010
0001
0100
0010
0001
0100
1000
0001
0100
0010
1000
0001
,
0101
0000
0101
0000
0100
1000
0100
0000
0110
0000
0110
0000
0010
1000
0010
0000
,
0101
1000
0010
0100
0001
1000
0010
0100
0001
1000
0010
0100
0001
1000
0010
0100
,
0001
0010
0001
1000
0100
0010
0001
1000
0100
0010
0001
1000
0100
0010
0001
1000
,
0100
0001
0100
0001
0100
0001
1000
0100
1000
0100
1000
0100
0001
0010
0001
0010
,
0001
0010
0001
0010
1000
0100
1000
0100
0001
0010
0001
1000
0100
0010
1000
0100
,
0011
0011
0010
0100
1000
0100
0010
0001
,
1001
1001
1000
0100
0010
0001
0010
0100
,
1100
0010
1100
0010
1100
0010
1100
0010
1100
0001
1100
0001
1100
0001
1100
0001
,
0110
1000
0110
1000
0110
1000
0110
1000
0110
0001
0110
0001
0110
0001
0110
0001
,
1010
0100
0001
1000
0010
0100
0010
1000
0001
0100
0010
0001
0100
0010
1000
0010
,
0101
1000
0001
0010
0100
0001
1000
0100
0010
1000
0001
0100
0010
0100
1000
0010
,
0101
0000
0101
0110
0101
0110
0101
0110
,
0101
0010
1100
0001
0110
0000
0110
0000
1100
0010
0101
1000
0011
0000
0011
0000
,
1001
0000
0010
0000
1000
0001
0100
0010
0001
0000
0100
0000
0010
0100
1000
0001
,
0110
0000
0001
0000
1000
0001
1000
0010
0001
0000
1000
0000
0100
0001
0010
1000
,
0110
0000
0001
0000
1000
0001
1000
0100
0001
0000
0010
0000
0100
0010
0100
1000
,
0101
0000
0010
0000
1000
0001
0010
0001
0100
0000
0010
0000
1000
0001
0100
1000
,
0110
0001
0010
0001
0010
0001
0010
0001
0010
0001
0010
0001
0010
0001
0010
0001
,
1000
0100
1000
0100
1000
0100
1000
0100
1000
0100
1000
0100
1000
0100
1000
0100
,
0011
1000
0001
0100
0010
1000
0001
0100
0010
0001
1000
0010
0100
0010
1000
0100
,
0011
1000
0001
0010
0100
0010
1000
0001
1100
0010
0100
0001
1000
0100
0010
1000
,
0110
0000
1000
0000
0001
0010
0100
1000
0010
0000
0100
0000
0001
1000
0010
0001
,
0100
0000
1000
0000
0010
0100
1000
0010
0001
0000
0100
0000
0010
0001
1000
0010
,
0100
0001
0100
0001
0100
0001
1000
0010
1000
0010
1000
0010
0100
1000
0100
1000
,
0010
0100
0010
0100
0010
0100
0001
1000
0001
1000
0001
1000
0001
1000
0001
1000
,
0101
0000
0010
0000
1000
0100
0010
1000
0100
0000
0001
0000
1000
0100
0010
0001
,
0100
0000
1000
0000
0001
0010
0001
0100
0010
0000
1000
0000
0001
1000
0100
0001
,
0010
0100
0001
1000
0010
0100
0001
1000
0010
0100
0010
0001
1000
0010
0100
1000
,
0001
0010
0001
0010
0001
0010
0001
0010
0100
0001
0100
0001
0100
0001
0100
0001
,
1010
0000
0100
0000
0001
0100
0010
0100
0001
0000
1000
0000
0010
0100
0010
0001
,
1000
0000
0100
0000
0010
1000
0001
0100
0010
0000
1000
0000
0100
0010
1000
0100
,
0011
0000
1000
0000
0100
0010
1000
0001
0010
0000
0001
0000
0100
0010
0100
1000
,
0001
0000
0100
0000
0010
1000
0001
1000
0100
0000
0010
0000
0100
1000
0001
0010
,
0101
0000
0010
0000
1000
0010
0100
0010
1000
0000
0001
0000
0100
0010
0100
1000
,
0011
0000
1000
0000
0100
0001
1000
0010
0100
0000
0001
0000
0010
0100
0001
0010
,
1100
0000
0001
0000
0010
0100
0001
1000
0100
0000
1000
0000
0010
0100
0010
0001
,
1100
0000
0010
0000
0100
0001
1000
0001
0010
0000
0100
0000
0010
0001
1000
0100
,
0011
0000
0100
0000
1000
0010
0100
0001
1000
0000
0010
0000
0001
1000
0010
0001
,
1100
0000
0010
0000
0001
1000
0010
0100
1000
0000
0100
0000
0001
1000
0001
0010
,
0100
0001
0100
0001
0100
0001
0100
0001
0100
0001
0100
0001
0100
0001
0100
0001
,
1000
0100
1000
0100
1000
0100
1000
0100
1000
0100
1000
0100
1000
0100
1000
0100
,
0011
1000
0100
0001
1000
0010
0100
0001
1000
0010
0100
1000
0010
0001
0100
0010
,
0100
0001
1000
0010
0100
1000
0001
0100
0010
0001
1000
0010
0100
1000
0100
0010
,
0001
0100
0001
1000
0001
0100
0001
1000
0001
0100
0001
1000
0001
0100
0001
1000
,
0100
0000
0000
0000
0020
0000
0000
0030
,
0110
1000
0100
1000
0100
1000
0100
1000
0100
1000
0100
1000
0100
1000
0100
1000
,
0011
0100
0010
0100
0010
0100
0010
0100
0010
0100
0010
0100
0010
0100
0010
0100
,
1001
0010
0001
0010
0001
0010
0001
0010
0001
0010
0001
0010
0001
0010
0001
0010
,
1000
0001
0100
0010
1000
0100
0010
0001
0100
0010
1000
0100
0001
1000
0100
0001
,
0110
1000
0010
1000
0010
1000
0010
1000
0010
1000
0010
1000
0010
1000
0010
1000
,
0101
0010
0100
0010
0100
0010
0100
0010
0100
0010
0100
0010
0100
0010
0100
0010
,
1001
0100
0001
0100
0001
0100
0001
0100
0001
0100
0001
0100
0001
0100
0001
0100
,
1000
0010
1000
0010
1001
0000
0000
0000
0001
0100
0001
0100
1001
0000
0000
0000
,
1000
0100
0010
0001
1000
0100
0010
0001
1000
0010
0100
0001
1000
0010
0100
0001
1000
0100
0010
0001
0100
0010
1000
0100
0010
0001
0100
0010
1000
0001
0010
0100
,
1000
0001
0010
0100
1000
0001
0100
0010
1000
0001
0100
0010
1000
0001
0010
0100
1000
0010
0100
0001
0010
0100
1000
0010
0100
0001
0100
0010
1000
0010
0100
0001
,
0010
0000
0100
0000
0010
0000
0000
0000
1000
0100
0010
0000
1000
0000
0000
0000
0001
0010
0100
0000
0001
0000
0000
0000
1000
0100
0010
0000
1000
0000
0000
0000
,
0011
0000
0110
0000
1010
0100
1001
0000
0000
0000
1001
0000
0000
0000
1001
0000
,
0001
0000
0100
0000
0001
0100
0010
1000
0100
0000
0001
0000
0100
0010
0100
1000
,
0001
0010
1000
0001
0100
0010
0001
1000
0100
0010
0100
0010
1000
0001
0100
0010
1000
0001
0100
0010
0100
1000
0001
0100
,
0011
0110
1010
0110
0101
1010
0110
0101
,
1001
1010
1100
0101
0011
1001
1010
0101
,
0220
0000
0000
0000
,
0000
0000
0000
0330
,
1000
0100
0010
0001
1000
0100
0010
0001
,
1000
0100
0010
0001
1000
0100
0010
0001
,
1000
0010
0100
0001
1000
0010
0100
0001
,
1000
0010
0100
0001
1000
0010
0100
0001
,
0100
0010
1000
0010
0100
0001
0100
0010
,
1000
0010
0100
0001
0100
0010
1000
0010
,
0100
0010
0001
0010
0100
1000
0100
0010
,
0001
0010
0100
1000
0100
0010
0001
0010
,
1100
1100
0001
0001
0100
0100
0010
0010
,
0101
0101
1000
1000
0010
0010
0100
0100
,
0012
1000
0100
0010
1000
0010
0100
1003
,
0210
0001
1000
0301
2010
0001
0100
3010
,
0201
0010
1000
0001
0010
0001
0010
1300
,
1001
1001
1001
0100
0010
0010
1000
1000
,
0101
0000
1100
1100
1100
1100
1100
1100
,
1100
0001
0010
0001
0010
0001
0010
0001
0010
0001
0010
0001
0010
0001
0010
0001
,
1100
0000
0000
0000
0010
0000
0100
0000
0001
0000
1000
0000
0010
0001
0100
0010
0001
0100
1000
0001
0100
0000
0010
0000
0100
0000
0001
0000
1000
0000
0010
0000
,
0001
1000
0000
0000
1000
0100
0010
0100
0001
0010
0100
1000
0010
0100
1000
0001
0010
0100
0001
1000
0100
0010
1000
0001
0110
0000
0000
0000
0110
0000
0000
0000
,
1000
0000
0000
0000
0000
0000
0010
0000
0000
0000
0000
0000
0001
0000
0000
0000
0000
0000
0000
0000
0000
0000
0000
0000
0100
0000
0000
0000
0000
0000
0000
0000
0000
0000
0000
0000
0010
0000
0000
0000
0000
0000
0000
0000
0000
0000
0000
0000
1000
0000
0000
0000
0000
0000
0000
0000
0001
0000
0000
0000
0000
0000
0000
0000
0100
0000
0000
0000
0000
0000
0000
0000
0010
0000
0000
0000
0000
0000
0000
0000
0000
0000
0000
0000
1000
0000
0000
0000
0000
0000
0000
0000
0000
0000
0000
0000
0000
0000
0000
0000
0000
0000
0001
0000
0000
0000
0000
0000
0000
0000
0000
0000
0000
0000
0000
0000
0000
0000
0000
0000
1000
0000
0000
0000
0000
0000
0000
0000
0000
0000
0000
0000
0010
0000
0000
0000
0000
0000
0000
0000
0000
0000
0000
0000
0100
0000
0000
0000
0000
0000
0010
0000
0000
0000
0000
0000
1000
0000
0000
0000
0000
0000
0000
0000
0000
0000
0000
0000
0000
0000
0000
0000
0000
0000
0100
0000
0000
0000
0000
0000
0010
0000
0000
0000
0000
0000
1000
0000
0000
0000
0000
0000
,
0100
0000
0000
0000
0000
0000
0000
0000
0000
0000
0000
0000
0000
0000
0000
0000
0000
0000
0001
0000
0000
0000
0000
0000
0100
0000
0000
0000
0000
0000
0000
0000
0000
0000
0000
0000
0010
0000
0000
0000
0000
0000
0000
0000
0000
0000
0000
0000
0100
0000
0000
0000
0000
0000
0000
0000
0000
0000
0000
0000
1000
0000
0000
0000
0000
0000
0000
0000
0000
0000
0000
0000
0001
0000
0000
0000
0000
0000
0000
0000
0000
0000
0000
0000
0010
0000
0000
0000
0000
0000
0000
0000
0000
0000
0000
0000
0100
0000
0000
0000
0000
0000
0000
0000
0001
0000
0000
0000
0000
0000
0000
0000
1000
0000
0000
0000
0000
0000
0000
0000
0010
0000
0000
0000
0000
0000
0000
0000
0100
0000
0000
0000
0000
0000
0000
0000
1000
0000
0000
0000
0000
0000
0000
0000
0001
0000
0000
0000
0000
0000
0000
0000
0000
0000
0000
0000
0000
0000
0000
0000
0000
0000
0000
0000
0000
0000
0000
0000
0000
0000
0000
0000
0000
0000
0000
0000
0000
0000
0000
0000
0000
0000
0000
0000
0000
0000
0000
0000
0000
0000
0000
0000
,
0100
0010
0001
1000
0100
0010
0001
1000
0010
0100
0001
0010
0100
1000
0010
0100
0001
1000
0100
0010
1000
0001
0010
0100
,
0001
0000
1000
0000
0010
0100
0001
0000
2000
0000
0000
0000
0000
0000
3000
0000
,
0002
0000
0000
0000
0100
0000
2003
0000
0000
0000
0010
0000
0100
0000
0001
3000
,
0010
0100
0010
0100
0010
0100
0010
0100
0001
1000
0001
1000
0001
1000
0001
1000
0100
0010
0100
0010
0100
0010
0100
0010
0001
0100
0001
0100
0001
0100
0001
0100
,
0010
1000
0010
1000
0010
1000
0010
1000
0010
1000
0100
0001
0010
0100
0010
0001
,
1000
0010
0100
0010
1000
0001
0100
0010
1000
0001
0010
0100
1000
0001
0010
0100
,
0001
1000
0100
0010
1000
0001
0100
0010
0001
1000
0010
0100
0011
1000
0001
0100
,
0001
1000
0001
0100
0010
0001
1000
0100
0010
1000
0001
0100
0010
1000
0001
0100
,
0010
0001
1000
0100
0001
0010
1000
0100
0001
0010
1000
0100
0001
0010
1000
0010
0001
0100
1000
0100
0001
0010
0100
1000
,
0001
0000
0010
0000
0100
0000
0001
0000
0010
0000
0100
0000
1000
0000
0000
0000
0000
0000
0000
0000
0000
0000
0000
0000
0010
0000
0001
0000
0010
0000
0001
0000
0010
0000
0001
0000
1000
0000
0100
0000
1000
0000
0100
1000
0000
0000
0000
0000
,
0001
0010
0100
1000
0001
0100
0010
1000
0001
0010
0100
1000
0010
0100
0001
0010
1000
0100
0010
0001
0100
0010
0001
1000
0100
0010
1000
0100
0010
0001
0100
1000
,
0001
0100
0010
1000
0001
0100
0010
0001
1000
0100
0001
0010
1000
0100
1000
0001
,
0110
0000
0000
0000
0000
0000
0001
0000
0010
0000
0100
0000
0010
0000
1000
0000
0001
0000
0100
0000
0000
0010
0000
0000
0001
0000
0000
0010
0000
0000
1000
0000
0000
0001
0000
0000
0100
0000
0000
0010
0000
0000
0001
0000
0000
1000
0000
0000
,
0010
0100
0010
0001
1000
0010
0100
0010
0001
1000
0010
0100
0001
1000
0010
0100
,
1000
0001
0100
0010
1000
0001
0100
0010
0100
0001
0010
0100
1000
0001
0010
0100
,
0001
0010
0100
0010
0100
1000
0100
1000
0001
1000
0001
0010
0001
0010
0100
0010
0100
1000
0010
0001
1000
0100
0010
0001
,
1000
0100
0010
0100
1000
0100
0001
0010
0100
0010
0001
0010
1000
0100
0001
0100
1000
0100
0001
0010
1000
0010
0001
0010
,
0100
0010
1000
0100
0001
0010
0100
0001
1000
0010
0100
0001
1000
0010
0100
0010
,
1000
0000
0100
0000
0010
0000
1000
0000
0010
0000
0100
0000
0001
0000
0100
0000
0010
1000
0001
0000
0100
0000
0001
0000
0100
0000
0010
0000
1000
0000
0100
0000
,
0011
0100
0001
1000
0010
0100
0010
0001
1000
0010
0100
0001
1000
0010
0100
0010
,
1001
0100
0010
1000
0001
0100
0010
0001
1000
0100
0010
1000
0001
0100
0010
0100
,
1000
0001
0010
1000
0001
0100
0010
1000
0001
1000
0001
0010
0001
1000
0010
0001
,
1000
0010
1000
0010
0100
0001
0100
0001
0010
0100
0010
0100
1000
0010
1000
0010
,
0100
0001
1000
0010
0100
1000
0001
0100
0010
0001
1000
0100
0010
1000
0001
0010
,
0100
0001
0010
0100
1000
0010
0100
0001
1000
0010
0100
0010
0001
1000
0010
0100
0010
0001
0100
0010
1000
0100
0001
0010
,
1000
0100
1000
0100
1000
0100
1000
0100
0001
1000
0010
0100
0001
1000
0010
0001
,
0100
1000
0010
1000
0010
0100
0001
0100
1000
0010
0100
0010
1000
0001
0010
0100
,
0001
0000
0010
0000
0001
0000
0010
0000
0001
0000
0010
0000
1000
0000
0100
0000
1000
0000
0100
0000
1000
0000
0100
0000
0010
0000
0000
0001
0000
0000
1000
0000
0000
0010
0000
0000
0100
0000
0000
0010
0000
0000
0001
0000
0000
1000
0000
0000
,
0100
0001
0010
1000
0100
0010
0001
1000
0010
0100
0001
0010
1000
0001
0100
0010
0100
1000
0001
0100
0010
0100
1000
0001
0100
0010
0001
0100
0010
1000
0100
0001
,
0010
1000
0100
0001
0010
0100
1000
0001
0100
0010
1000
0100
0001
1000
0010
0100
0010
0001
1000
0010
0100
0010
0001
1000
0010
0100
1000
0010
0100
0001
0010
1000
,
0100
0000
0000
0000
0000
0000
0000
0000
0000
0000
0000
0000
0001
0000
0000
0000
0000
0000
0000
0000
0000
0000
0000
0000
0010
0000
0000
0000
0000
0000
0000
0000
0100
0000
0000
0000
0000
0000
0000
0000
1000
0000
0000
0000
0000
0000
0000
0000
0010
0000
0000
0000
0000
0000
0000
0000
0000
0000
0000
0000
0100
0000
0000
0000
0000
0000
0000
0000
0000
0000
0000
0000
1000
0000
0000
0000
0000
0000
0000
0000
0000
0000
0000
0000
0100
0000
0000
0000
0000
0000
0001
0000
0000
0000
0000
0000
0010
0000
0000
0000
0000
0000
0000
0000
0000
0000
0000
0000
0100
0000
0000
0000
0000
0000
0000
0000
0000
0000
0000
0000
0010
0000
0000
0000
0000
0000
0000
0000
0001
0000
0000
0000
0000
0000
0000
0000
0100
0000
0000
0000
0000
0000
0000
0000
1000
0000
0000
0000
0000
0000
0000
0000
0000
0000
0000
0000
0100
0000
0000
0000
0000
0000
0000
0000
0000
0000
0000
0000
0010
0000
0000
0000
0000
0000
0000
0000
0000
0000
0000
0000
0001
0000
0000
0000
0000
0000
0000
0000
0000
0000
0000
0000
,
0010
0100
0001
0010
1000
0100
0010
0100
1000
0010
0001
0100
0010
0100
1000
0001
,
0010
0100
0001
1000
0010
0100
0010
0001
1000
0010
0100
0010
0001
1000
0010
0100
,
1000
0100
0010
0001
1000
0010
0100
0001
1000
0100
0010
0100
1000
0000
0000
0000
0001
0000
0100
0000
0010
0001
0010
0001
0010
0000
0100
0000
1000
0000
0010
0000
,
0100
0010
0001
0100
1000
0001
0010
1000
0100
0001
0010
0100
1000
0010
0001
0100
0010
1000
0100
0010
0001
0100
1000
0001
,
0010
1000
0100
0001
0010
0100
1000
0001
0010
1000
0100
1000
0010
0100
0010
0100
0010
0100
0010
0100
0010
0100
0010
0100
,
0001
0000
1000
0000
0010
0000
0001
0000
0000
0100
0000
0000
0010
0000
0000
0001
0000
0000
1000
0000
0000
0010
0000
0000
0100
0000
0000
0001
0000
0000
1000
0000
0000
0010
0000
0000
0100
0000
0000
0010
0000
0000
0001
0000
1000
0000
0100
0000
,
0010
0001
1000
0010
0100
0010
1000
0001
0100
0010
1000
0001
0100
0010
0100
1000
0001
0100
0010
0100
1000
0010
0100
0010
,
0001
0010
0100
1000
0100
0010
0001
0010
0100
1000
0100
0010
1001
0100
0010
0100
,
1000
0000
0010
0000
0100
0000
0001
0000
1000
0000
0010
0000
0100
0000
0010
0000
1000
0100
1000
0100
1000
0100
1000
0100
0010
0100
0010
0100
0010
0100
0010
0100
,
1000
0001
1000
0010
0100
0010
0001
1000
0010
0100
0010
0001
1000
0010
0100
0010
,
0001
0100
0010
1000
0100
0010
1000
0001
0100
0010
0100
1000
0010
0001
0010
0001
,
0010
0000
0000
0100
0000
0000
0001
0000
0000
0100
0000
0000
0010
0000
0100
0000
0010
0000
1000
0000
0100
0000
0001
0000
1000
0000
0010
0000
0100
0000
0010
0000
0001
0000
0100
0000
0010
0000
1000
0000
0100
0000
0001
0000
1000
0000
0010
0000
,
0100
0001
1000
0010
0100
0001
1000
0010
0100
0001
1000
0010
0100
0001
1000
0010
0100
0001
1000
0010
0100
0001
1000
0010
0100
0001
0010
1000
0100
0010
1000
0000
,
0110
0001
1000
0010
0100
1000
0001
0100
0010
1000
0001
0100
0010
0100
1000
0001
,
0100
0000
0000
0000
0000
0000
0010
0000
0000
0000
0000
0000
0100
0000
0000
0000
0000
0000
1000
0000
0000
0000
0000
0000
0001
0000
0000
0000
0000
0000
0000
0000
0000
0000
0000
0000
0010
0000
0000
0000
0000
0000
0000
0000
0000
0000
0000
0000
0100
0000
0000
0000
0000
0000
0000
0000
0010
0000
0000
0000
0000
0000
0000
0000
1000
0000
0000
0000
0000
0000
0000
0000
0100
0000
0000
0000
0000
0000
0000
0000
0001
0000
0000
0000
0000
0000
0000
0000
1000
0000
0000
0000
0000
0000
0000
0000
0010
0000
0000
0000
0000
0000
0000
0000
0001
0000
0000
0000
0000
0000
0000
0000
0100
0000
0000
0000
0000
0000
0000
0000
0001
0000
0000
0000
0000
0000
0000
0000
0010
0000
0000
0000
0000
0000
0000
0000
0100
0000
0000
0000
0000
0000
0000
0000
1000
0000
0000
0000
0000
0000
0000
0000
0010
0000
0000
0000
0000
0000
0000
0000
0100
0000
0000
0000
0000
0000
0000
0000
0010
0000
0000
0000
0000
0000
0000
0000
1000
0000
0000
0000
0000
0000
0000
0000
0001
0000
0000
0000
0000
0000
0000
0000
,
0100
0000
0010
0000
1000
0100
0010
0000
1000
0000
0001
0000
0010
0100
0010
0000
,
1000
0100
0001
1000
0010
0100
0010
0001
1000
0010
0100
0010
1000
0010
0100
0010
0001
1000
0010
0100
0001
1000
0010
0100
,
0001
0010
1000
0001
0100
0010
0100
1000
0001
0100
0010
0100
0001
0100
0010
0100
1000
0001
0100
0010
1000
0001
0100
0010
,
1000
0000
0000
0000
0000
0000
0000
0000
0100
0000
0000
0000
0000
0000
0000
0000
0001
0000
0000
0000
0000
0000
0000
0000
1000
0000
0000
0000
0000
0000
0000
0000
0010
0000
0000
0000
0000
0000
0000
0000
0100
0000
0000
0000
0000
0000
0000
0000
0010
0000
0000
0000
0000
0000
0000
0000
0001
0000
0000
0000
0000
0000
0000
0000
1000
0000
0000
0000
0000
0000
0000
0000
0010
0000
0000
0000
0000
0000
0000
0000
0100
0000
0000
0000
0000
0000
0000
0000
0010
0000
0000
0000
0000
0000
0000
0000
1000
0000
0000
0000
0000
0000
0100
0000
0000
0000
0000
0000
0010
0000
0000
0000
0000
0000
0001
0000
0000
0000
0000
0000
1000
0000
0000
0000
0000
0000
0100
0000
0000
0000
0000
0000
0010
0000
0000
0000
0000
0000
0001
0000
0000
0000
0000
0000
0100
0000
0000
0000
0000
0000
0010
0000
0000
0000
0000
0000
1000
0000
0000
0000
0000
0000
0100
0000
0000
0000
0000
0000
0010
0000
0000
0000
0000
0000
0001
0000
0000
0000
0000
0000
0100
0000
0000
0000
0000
0000
0010
0000
0000
0000
0000
0000
,
1000
0001
0100
0010
0100
1000
0001
0100
0010
1000
0001
0100
0010
0100
1000
0001
,
1100
0010
0100
0010
1000
0001
1000
0001
0010
1000
0010
1000
0100
0001
0100
0001
,
1010
0100
0010
1000
0100
1000
0001
0010
1000
0100
1000
0001
0010
1000
0100
1000
,
0001
0100
1000
0010
0100
1000
0010
0001
0100
1000
0100
0010
1000
0001
1000
0001
,
1000
0100
0001
0100
1000
0001
1000
0010
0100
0010
0001
1000
0010
0100
0010
0001
,
1000
0010
0100
0010
0001
0100
0010
1000
0100
0010
1000
0001
0100
0010
0100
1000
,
0110
0001
0100
1000
0010
0100
0010
1000
0001
0100
0001
1000
0010
1000
0100
0001
,
1000
0100
0010
0000
1000
0000
0100
0000
0001
0000
1000
0000
0010
0000
1000
0000
0100
0000
0010
0000
1000
0000
0001
0000
0010
0000
1000
0000
0001
0000
0100
0000
,
0010
0000
1000
0000
0010
0000
0001
0000
1000
0000
0100
0000
0001
0000
0100
0000
1000
0001
0010
0000
0100
0000
0010
0000
1000
0000
0001
0000
0100
0010
1000
0000
,
0100
1000
0010
0100
0001
1000
0010
0100
0010
0001
1000
0100
0010
1000
0001
0010
0100
1000
0010
0100
0001
0010
0100
1000
,
0100
0001
0010
0100
0001
1000
0100
1000
0010
0100
0001
0010
1000
0010
0100
0001
0010
0100
1000
0010
0100
0010
0001
0100
,
0001
0010
0100
1000
0010
0100
1000
0010
0001
0100
0010
1000
0001
0010
0100
1000
0010
0100
0001
0010
0100
1000
0100
0010
0001
1000
0010
0100
0010
0001
1000
0001
,
0110
0100
0010
0010
0001
0001
0010
0010
,
0100
0100
1000
1000
0100
0100
0010
0010
,
0001
0001
0010
0010
0100
0100
1000
1000
,
0010
0010
0100
0100
0001
0001
0100
0100
,
0010
0010
1000
1000
0010
0010
0100
0100
,
0001
0001
0010
0010
0100
0100
0001
0001
,
0100
0100
1000
1000
0100
0100
0001
0001
,
0100
0100
0010
0010
0001
0001
1000
1000
,
0201
0010
0001
0010
0001
0010
1000
0310
,
2001
0010
0001
0010
0001
0010
0001
3100
,
0012
1000
0010
1000
0010
1000
0010
0103
,
1020
0100
1000
0100
1000
0100
1000
0031
,
1200
0001
1000
0001
1000
0001
1000
0310
,
2001
0010
0001
0010
0001
0010
0001
3100
,
0001
0010
0100
1000
0100
0010
0001
0010
0100
1000
0100
0010
0001
0010
0100
1000
,
0100
0010
0001
0010
0100
1000
0100
0010
0001
0010
0100
1000
0100
0010
0001
0010
,
1100
1100
0110
1001
1001
1001
1100
0011
,
0011
0011
1010
0101
0101
0101
1001
0000
,
0011
0011
1010
0101
0101
0101
0011
1100
,
1100
0000
1100
0000
1001
0000
0110
0000
0110
0000
0110
1000
0101
0000
0000
0000
,
1001
1010
1001
0101
1001
1100
1001
0011
,
1001
1010
1001
0101
1001
1100
1001
0011
,
1000
0100
1000
0100
1000
0100
1000
0100
1000
0100
1000
0100
1000
0100
1000
0100
,
1000
0100
1000
0100
1000
0100
1000
0100
1000
0100
1000
0100
1000
0100
1000
0100
,
0022
0000
0000
0000
,
0000
0000
0000
0030
0000
0000
0000
0000
1000
0000
0000
0000
0010
0000
0003
0000
,
0101
0000
1000
0000
0010
0100
0001
1000
0100
0000
0001
0000
0010
1000
0100
0010
,
0001
0000
1000
0000
0100
0001
1000
0100
0010
0000
0001
0000
0100
0010
1000
0100
,
0001
0010
0001
0010
0001
0010
1000
0100
1000
0100
1000
0100
0001
1000
0001
1000
,
0100
0001
0100
0001
0100
0001
0010
1000
0010
1000
0010
1000
0010
1000
0010
1000
,
0011
0000
0100
0000
1000
0001
0100
1000
0001
0000
0010
0000
1000
0001
0100
0010
,
0001
0000
1000
0000
0010
0100
0010
0001
0100
0000
1000
0000
0010
1000
0001
0010
,
0100
0001
0010
1000
0100
0001
0010
1000
0100
0001
0100
0010
1000
0100
0001
1000
,
0010
0100
0010
0100
0010
0100
0010
0100
0001
0010
0001
0010
0001
0010
0001
0010
,
1100
0000
0001
0000
0010
0001
0100
0001
0010
0000
1000
0000
0100
0001
0100
0010
,
1000
0000
0001
0000
0100
1000
0010
0001
0100
0000
1000
0000
0001
0100
1000
0001
,
0110
0000
1000
0000
0001
0100
1000
0010
0100
0000
0010
0000
0001
0100
0001
1000
,
0010
0000
0001
0000
0100
1000
0010
1000
0001
0000
0100
0000
0001
1000
0010
0100
,
0011
0000
0100
0000
1000
0100
0001
0100
1000
0000
0010
0000
0001
0100
0001
1000
,
0110
0000
1000
0000
0001
0010
1000
0100
0001
0000
0010
0000
0100
0001
0010
0100
,
1001
0000
0010
0000
0100
0001
0010
1000
0001
0000
1000
0000
0100
0001
0100
0010
,
1001
0000
0100
0000
0001
0010
1000
0010
0100
0000
0001
0000
0100
0010
1000
0001
,
0110
0000
0001
0000
1000
0100
0001
0010
1000
0000
0100
0000
0010
1000
0100
0010
,
1001
0000
0100
0000
0010
1000
0100
0001
1000
0000
0001
0000
0010
1000
0010
0100
,
0001
0010
0001
0010
0001
0010
0001
0010
0001
0010
0001
0010
0001
0010
0001
0010
,
1000
0001
1000
0001
1000
0001
1000
0001
1000
0001
1000
0001
1000
0001
1000
0001
,
0110
1000
0001
0010
1000
0100
0001
0010
1000
0100
0001
1000
0100
0010
0001
0100
,
0001
0010
1000
0100
0001
1000
0010
0001
0100
0010
1000
0100
0001
1000
0001
0100
,
0010
1000
0010
1000
0010
1000
0010
1000
0010
1000
0010
1000
0010
1000
0010
1000
,
0101
0000
0000
0000
0200
0000
0000
0300
,
0110
1000
0100
1000
0100
1000
0100
1000
0100
1000
0100
1000
0100
1000
0100
1000
,
0011
0100
0010
0100
0010
0100
0010
0100
0010
0100
0010
0100
0010
0100
0010
0100
,
1001
0010
0001
0010
0001
0010
0001
0010
0001
0010
0001
0010
0001
0010
0001
0010
,
1000
0001
0100
0010
1000
0100
0010
0001
0100
0010
1000
0100
0001
1000
0100
0001
,
0110
1000
0010
1000
0010
1000
0010
1000
0010
1000
0010
1000
0010
1000
0010
1000
,
0101
0010
0100
0010
0100
0010
0100
0010
0100
0010
0100
0010
0100
0010
0100
0010
,
1001
0100
0001
0100
0001
0100
0001
0100
0001
0100
0001
0100
0001
0100
0001
0100
,
0010
1000
0100
0010
1000
0001
0100
0010
1000
0001
0010
0100
1000
0001
0100
1000
,
0022
0000
0000
0000
,
0000
0000
0000
0000
,
0000
0000
0000
0000
,
0000
0000
0000
0000
0000
0000
0000
0033
,
2100
0001
0100
0010
,
0001
0000
0010
0000
0100
3000
0011
0000
,
0012
1000
0010
0100
,
1000
0000
0010
0000
0100
0003
0010
0000
,
2001
0010
0100
0010
,
0001
0000
0010
0000
0100
0000
0001
3000
,
0220
0000
0000
0000
0000
0000
0000
0330
2200
0000
0000
0000
0000
0000
0000
3300
,
0202
0000
0000
0000
0000
0000
0000
0303
2020
0000
0000
0000
0000
0000
0000
3030
,
0022
0000
0000
0000
0000
0000
0000
0000
0000
0000
0000
0033
1001
0000
0000
0000
,
2002
0000
0000
0000
0000
0000
0000
0000
0000
0000
0000
0000
0000
0000
0000
0000
0000
0000
0000
0000
0000
0000
0000
0000
0000
3003
M00M
0000
0000
0000
0000
0000
;

//---------------dance-single - ----------------
#NOTES:
     dance-single:
     :
     Hard:
     13:
     0.872,1.000,0.282,0.259,0.547,2408.000,122.000,112.000,0.000,11.000:
0001
1000
0010
0100
0001
0010
0100
1000
,
0010
0000
0010
0100
0010
0000
1000
0000
0001
0000
0010
0000
0001
0000
0100
0000
,
0010
0000
1000
0100
0010
0000
0100
0000
1000
0000
0100
0000
1000
0000
0001
0000
,
0100
0010
1000
0100
0020
0000
0032
0000
,
1003
0000
0010
0100
0001
0000
0010
0000
0100
0000
1000
0000
0010
0000
0100
0000
,
0001
0000
0001
1000
0001
0000
0100
0000
0010
0000
0100
0000
0001
0000
1000
0000
,
1010
1010
1010
1010
,
0001
0100
0000
0000
1000
0010
0000
0000
,
0001
0100
0010
1000
0100
1000
0001
0100
,
0010
0000
1000
0000
0100
0000
0010
0000
0001
1000
0001
1000
0001
1000
0001
1000
,
0001
0100
0010
1000
0100
1000
0001
0100
,
0110
0110
0110
1010
,
1000
0100
0010
0001
0100
0010
0100
0001
,
1000
0000
0100
0000
1000
0000
0100
0000
0010
0001
0010
0001
0010
0001
0010
0001
,
0020
0000
0000
0032
0000
0000
0203
0000
,
0310
0000
2000
0000
0000
0000
3200
0000
0000
0000
2300
0000
0000
0000
0000
3000
,
0001
0100
0010
1000
0001
0100
0010
1000
,
0001
0100
0010
1000
0100
0010
0002
0000
,
1003
0010
0100
0001
0100
0010
1000
0100
,
0020
0000
0001
0000
1000
0000
0001
0030
,
0100
0010
1000
0100
1000
0001
1000
0000
,
0001
0010
1000
0010
0001
0010
0100
1000
,
0001
0100
0001
0100
0001
0100
0001
0100
0001
0100
0001
0100
0001
0100
0001
0010
,
0200
0010
0010
0310
,
1000
0001
1000
0001
1000
0001
1000
0001
1000
0001
0000
0000
,
1000
0010
1000
0010
1000
0010
1000
0000
0000
1001
0000
0000
,
0100
0010
0100
0010
0100
0010
0100
0010
0100
0010
0000
0000
,
0100
0001
0100
0001
0100
0001
0100
0000
0000
1100
0000
0000
,
0100
0010
0100
0010
0100
0010
0100
0010
0100
0010
0000
0000
,
0100
1000
0100
1000
0100
1000
0100
0000
0000
0110
0000
0000
,
0001
1000
0001
1000
0001
1000
0001
1000
0001
1000
0000
0000
,
0001
0010
0001
0010
0001
0010
0001
0000
0000
0101
0000
0000
,
1001
0000
0000
0000
0001
1002
0000
0000
,
0020
0000
0000
0033
,
0000
1000
0001
1000
0001
1000
0100
0010
,
0100
0000
0000
0000
,
0000
0000
0000
0000
,
0001
1000
0010
1000
0001
0100
0010
1000
,
0100
0000
1000
0000
0001
0100
0010
0000
,
1000
0001
0100
0010
1000
0100
1000
0001
,
0010
0000
0100
0000
1000
0001
1000
0000
,
0020
0000
0000
0000
,
0000
0000
0000
0031
,
1000
0010
1000
0010
1000
0010
1000
0010
1000
0010
1000
0010
1000
0010
1000
0010
,
1000
0001
0010
0100
0010
1000
0010
0001
,
1000
0001
0100
0001
1000
0010
0100
0001
,
0010
0000
0001
0000
1000
0010
0100
0000
,
0001
1000
0010
0100
0001
0010
0001
1000
,
0100
0000
0010
0000
0001
1000
0001
0000
,
0010
0001
0010
0001
0010
0001
0010
0001
0010
0100
0010
0100
0010
0100
0010
0100
,
0010
0001
0010
0001
0010
0001
0010
0100
0010
0100
0010
0100
1000
0000
0000
0000
,
0001
0100
0001
0100
0001
0100
0001
0100
0001
0100
0001
0100
0001
0100
0001
0100
,
0001
0100
0010
0100
1000
0010
0100
0010
,
0001
0000
0000
1000
0010
0000
0000
0000
,
0000
1000
0001
0100
,
0010
0000
0000
1000
0100
0000
0000
0000
,
0001
0100
0010
1000
0001
1000
0100
0000
,
0001
1000
0010
0100
,
0001
0000
0100
0000
0010
0000
1000
0100
,
1000
0001
1000
0000
0000
0000
0100
0010
0100
0000
0000
0000
0001
0010
0001
0000
,
0010
0100
0010
0000
0001
1000
0001
0000
1000
0010
1000
0000
0100
0010
0001
0000
,
1000
1001
1001
1001
,
1001
1001
1001
1001
,
0100
0010
0001
0100
0010
1000
0100
0010
,
0001
0100
0010
1000
0100
0001
0100
1000
,
0010
0000
0100
0010
0001
0010
0001
0010
,
0001
0010
0100
1000
0100
1000
0100
2000
,
0200
0000
0000
0000
0000
0000
0000
0000
0000
0000
0000
0000
0000
3300
0000
0000
,
1000
0001
1000
0000
0001
1000
0001
0000
0200
0000
0000
0000
0010
0000
0300
0000
,
1000
0010
0100
0001
1000
0001
0100
0010
,
1000
0001
0010
0001
0100
0010
1000
0001
,
0020
0000
0000
0230
0000
0000
1300
0000
,
0020
0000
0000
0230
0000
0000
0301
0000
,
0010
0001
1000
0010
0100
0010
1000
0100
,
0010
0001
0100
0001
1000
0010
0100
0001
,
0020
0000
0001
0000
,
0100
0000
0001
0031
,
1000
0010
0100
0001
0010
0001
1000
0010
,
0100
0010
1000
0100
0010
0001
0100
0001
,
1000
0100
0010
0100
1000
0001
0100
0001
,
0010
0100
1000
0100
0010
0001
1000
0001
,
0100
0010
1000
0010
0100
0001
0010
0001
,
1000
0100
0010
0100
1000
0001
0100
0001
,
0010
0001
1000
0010
0100
0001
0010
0100
,
1000
0000
1000
0000
0100
0010
0100
0000
1000
0000
1000
0000
0010
0100
0010
0000
,
0001
1000
0001
0100
0010
1000
0010
0100
,
0001
0010
0100
1000
0001
0100
0001
0000
,
1000
0100
1000
0100
1000
0100
1000
0100
1000
0100
1000
0100
1000
0000
0000
0000
,
0010
0100
0010
0100
0010
0100
0010
0100
0010
0100
0010
0100
0010
0000
0000
0000
,
1000
0010
0100
0001
0010
0100
1000
0001
,
0100
0001
0010
0100
1000
0100
0001
0020
,
2000
0000
0000
0000
0000
0000
0000
3000
,
1030
0000
1001
0000
,
0010
0100
0001
1000
0001
0010
0100
1000
,
1000
0001
0100
0010
1000
0001
0010
0100
,
0100
1000
0010
0100
0001
0010
0100
1000
,
1000
0001
0010
0001
1000
0010
0100
0001
,
0001
0010
0001
1000
0010
0100
0001
0010
,
0010
1000
0100
0100
0010
1000
0001
0010
,
0010
0001
0010
0100
0010
0001
0010
0100
,
1000
0010
1000
0010
1000
0010
1000
0010
1000
0010
1000
0010
1000
0010
1000
0010
,
1000
0100
0010
0001
1000
0001
0100
0010
,
1000
0010
0100
0001
0010
0100
1000
0001
,
0100
0001
1000
0010
0000
0100
0000
0001
,
0010
0001
1000
0010
0000
0100
0000
0000
,
0120
0000
0000
1100
0000
0000
0101
0030
,
1000
0100
0010
0001
1000
0001
0100
0001
,
0010
0000
0000
0000
1000
1000
0000
0000
,
0001
0001
0000
0000
0100
0100
0000
0000
,
0022
0000
0000
0000
,
0030
1000
0100
0013
,
1000
0010
0100
0001
0010
0001
1000
0001
,
0100
0000
0010
0000
1000
0100
0010
0000
,
0001
0100
0001
1000
0010
0100
0001
0010
,
0100
0000
1000
0000
0001
0100
0001
0000
,
0020
0000
0000
0001
0000
0000
0100
0000
,
0001
0000
0000
0100
0000
0000
0031
0000
,
1000
0010
0100
0001
0010
0001
1000
0100
,
0010
0001
1000
0001
0100
0010
1000
0010
,
0100
0001
0010
0001
1000
0100
0010
0001
,
0100
0000
0100
0000
0100
0001
1000
0000
,
0010
0100
0010
1000
0100
0010
0001
1000
,
0001
0000
0100
0000
0010
0010
1000
0000
,
0001
0010
1000
0100
0001
0010
1000
0100
,
1000
0010
0001
0100
1000
0001
0010
0100
,
1100
0000
0000
0110
0000
0000
0101
0000
,
0000
0011
1010
0101
,
1001
0100
0010
1000
0001
0010
0100
1000
,
0101
1000
0010
0100
0001
0010
0100
1000
,
0010
0100
0010
0100
0010
0100
0010
0100
0010
0100
0010
0100
0010
0100
0010
0100
,
0001
1000
0001
1000
0001
1000
0001
1000
0001
1000
0001
1000
0001
1000
0001
1000
,
0010
0100
0001
1000
0001
0010
0100
1000
,
0001
0100
0001
0010
0001
1000
0100
0010
,
0002
0000
1000
1000
1000
1000
1003
0100
,
0001
1000
0001
0000
1001
0000
0000
0000
1000
0001
1000
0000
1001
0000
0000
0000
,
0100
0010
1000
0010
0100
0001
0010
0001
,
1000
0001
0100
0001
0010
0100
1000
0010
,
0100
0001
1000
0001
0100
0001
0010
0100
,
1000
0010
0100
0010
1000
0010
0100
0001
,
1000
0001
0010
0100
1000
0001
0100
0001
,
0010
0100
1000
0100
0010
0100
1000
0010
,
0002
0000
0000
0003
,
1010
0000
0000
0000
0020
0000
1000
0030
,
0001
0100
0010
1000
0001
1000
0010
0100
,
0001
1000
0100
1000
0010
0100
0001
1000
,
0200
0000
0000
0320
0000
0000
0031
0000
,
0200
0000
0000
0320
0000
0000
1030
0000
,
0100
1000
0001
0100
0010
0100
0001
0010
,
0100
1000
0010
1000
0001
0100
0010
1000
,
0200
0000
1000
0000
,
0010
0000
1000
1300
,
0001
0100
0010
1000
0100
1000
0001
0100
,
0010
0100
0001
0010
0100
1000
0010
1000
,
0001
0010
0100
0010
0001
1000
0010
1000
,
0100
0010
0001
0010
0100
1000
0001
1000
,
0010
0100
0001
0100
0010
1000
0100
1000
,
0001
0010
0100
0010
0001
1000
0010
1000
,
0100
1000
0001
0100
0010
1000
0100
0010
,
0001
0000
0001
0000
0010
0100
0010
0000
0001
0000
0001
0000
0100
0010
0100
0000
,
1000
0001
1000
0010
0100
0001
0100
0010
,
1000
0100
0010
0001
1000
0010
1000
0000
,
0001
0010
0001
0010
0001
0010
0001
0010
0001
0010
0001
0010
0001
0000
0000
0000
,
0100
0010
0100
0010
0100
0010
0100
0010
0100
0010
0100
0010
0100
0000
0000
0000
,
0001
0100
0010
1000
0100
0010
0001
1000
,
0010
1000
0100
0010
0001
0010
1000
0200
,
0002
0000
0000
0000
,
1010
0000
0010
0303
,
1000
0100
0010
0001
1000
0001
0100
0001
,
0010
0100
1000
0001
0100
0001
0010
0001
,
1000
0010
0100
0010
1000
0100
0010
0100
,
1000
0001
0100
0001
0010
0001
1000
0010
,
0100
0010
1000
0010
0100
0001
0010
0001
,
1000
0001
0100
0001
0010
0100
1000
0001
,
0100
0001
1000
0010
0100
0010
1000
0100
,
0010
0100
0010
0100
0010
0100
0010
0000
,
1000
0100
1000
0000
0000
0000
0010
0001
0010
0000
0000
0000
0100
0010
0100
0000
,
0001
0010
0001
0000
0000
0000
0010
1000
0010
0000
0000
0000
0001
0100
0001
0000
,
1000
0010
1000
0010
1000
0010
1000
0010
1000
0010
1000
0010
1000
0010
1000
0010
,
2000
0001
0000
0010
0000
0100
0000
3000
,
0001
0100
0010
1000
0010
0100
0001
0010
,
0001
1000
0001
0000
0000
0000
0000
0000
0000
0000
0000
0000
1000
0100
1000
0000
0000
0000
0000
0000
0000
0000
0000
0000
0010
0100
0010
0000
0000
0000
0000
0000
,
1000
1100
0000
0000
0010
0110
0000
0000
,
0001
0011
0000
0000
1000
1100
0000
0000
,
2002
0000
0000
0000
,
0000
0000
0000
0000
0003
3000
0000
0000
,
0100
0001
0010
0100
,
0001
1000
0010
0100
,
0001
0010
1000
0010
,
1000
0100
0001
0100
,
0010
0100
0001
0010
,
1000
0100
1000
0100
,
0001
0010
0100
0010
,
1000
0100
0001
0010
,
1010
0000
0000
0110
0000
0000
0011
0000
,
1001
0000
0000
0110
,
1010
0000
0000
0110
0000
0000
0101
0000
,
0011
0000
1010
0000
,
0110
0000
0000
0011
0000
0000
1001
0000
,
0110
0000
0000
0000
1000
0000
0010
0100
,
0001
0000
0010
0001
1000
0010
0200
0002
,
0020
0000
0000
0333
,
1000
0000
0100
0000
0010
0000
0001
0100
0010
1000
0010
0100
0001
0010
0100
1000
,
0100
0010
0001
0010
0100
0001
0100
0001
0010
0100
0010
0100
1000
0000
0000
0000
,
0001
0001
0010
0010
1000
1000
0100
0100
,
0010
0010
0001
0001
0100
0100
1000
0000
,
0001
0010
0100
0010
0100
0010
0002
0000
1000
0000
0010
0000
0100
0003
1000
0000
,
0010
0000
0100
0000
0001
0010
1000
0000
2200
0000
0000
0000
0000
0000
3300
0000
,
0002
0000
0100
0023
0000
1030
0100
0010
,
0001
0100
0001
0100
0001
0100
0001
0100
0001
0100
0001
0100
0001
0100
0001
0000
,
0022
0000
0000
0000
0000
0033
0000
0000
1000
0000
0010
0000
0100
0000
0001
0000
,
0010
0000
1000
0010
0000
0100
0001
0000
,
0010
0001
1000
0001
0100
0001
0010
0100
,
1000
0000
0100
0001
0000
0010
0001
0000
,
1000
0100
1000
0000
0001
0100
0001
0000
0010
0100
0010
0000
1000
0100
0010
0000
,
0010
0000
0010
0000
0020
0000
0000
0000
0100
0000
1000
0000
0100
0030
0001
0000
,
0010
0100
0010
0100
0010
0100
0010
0100
0010
0100
0010
0100
0010
0100
0010
0100
,
0010
0001
0010
0001
0010
0001
0010
0001
0010
0001
0010
0001
0010
0001
0010
0001
,
0010
0000
0001
0010
0100
0000
1000
0100
0010
0000
0001
0100
0010
0000
1000
0010
,
0100
0000
0010
1000
0100
0010
0100
0010
0001
0010
0100
1000
0010
0000
0000
0000
,
1000
0000
0001
0100
0010
0000
1000
0100
0010
0000
0001
1000
0010
0000
0100
0001
,
1000
0000
0010
0000
0001
0000
0100
1000
0100
1000
0100
1000
0100
1000
0100
1000
,
0010
0100
1000
0100
0010
0001
0010
0100
1000
0001
0010
0100
0010
0001
1000
0100
,
0010
0001
0100
0010
1000
0010
0100
0001
1000
0100
0010
0001
0010
0100
0010
0001
,
0010
0000
0000
0110
0000
0000
0110
0000
0101
0000
0000
1100
0000
0000
0110
0000
,
1000
0100
2000
0000
0000
0000
0000
0000
0000
0000
0000
0000
0010
0000
3010
0000
,
0001
0100
0001
1000
0010
0100
0001
0010
,
0100
1000
0010
0100
0010
1000
0001
0010
,
0001
0000
1000
0001
1000
0000
0100
0000
0010
0000
1000
0100
0010
0000
0001
0000
,
0100
0000
0020
2000
0000
0000
3030
0000
,
0001
1000
0001
1000
0001
0000
0110
0000
1000
0001
1000
0001
1000
0000
0110
0000
,
0001
0000
1000
0000
0001
0000
1000
0001
1000
0010
0001
0010
1000
0010
0001
0010
,
0200
0000
0000
0000
0000
0000
0000
0300
,
2020
0000
0000
0000
0000
0000
0000
0000
0000
0000
0000
0000
0000
3030
0000
0000
,
1000
0100
0000
0010
0001
1000
0001
0100
,
0010
1000
0010
0100
0001
0010
0001
1000
,
0010
0000
0010
0100
0010
0000
0100
0010
0100
0000
0100
0010
0100
0000
0010
0100
,
0010
0000
0010
0100
0010
0000
0100
1000
0001
0100
0010
0100
0001
0000
0001
0000
,
1000
0100
0010
0001
0010
0100
1000
0010
0100
0001
1000
0010
0100
0001
0100
0010
,
1000
0001
0100
0010
1000
0001
1000
0000
0002
0000
1000
0000
0010
0000
0100
0003
,
1000
0100
0010
0001
0000
0000
1000
0100
0010
0001
0000
0000
0100
1000
0001
0010
0000
0000
1000
0010
0100
0001
0000
0000
,
0010
0100
0001
1000
0000
0000
0010
0100
0001
1000
0000
0000
0001
0010
0001
0010
0001
0010
0001
0010
0001
0010
0001
0010
,
0001
0100
0001
0100
0001
0100
0001
0100
0010
1000
0001
1000
0100
0010
0001
0000
,
1000
0010
1000
0010
1000
0010
1000
0010
0100
0001
0100
0001
0100
0001
0100
0001
,
0010
0100
1000
0001
0010
0100
1000
0001
0100
0010
1000
0100
0010
0001
1000
0010
,
0100
0001
0100
0010
0100
0001
0100
0010
0100
1000
0100
0000
1000
0001
1000
0000
,
0010
0100
0010
0000
0001
1000
0001
0000
0100
0010
0001
0010
0100
1000
0100
0010
,
0001
0000
0010
0000
0001
0000
0100
0000
0010
0001
0010
0000
2000
0000
0000
0000
,
3001
1000
0001
1000
0001
1000
0001
1000
0001
1000
0001
1000
0001
1000
0001
1000
,
0001
1000
0001
1000
0001
1000
0001
1000
0001
1000
0001
1000
0001
1000
0001
1000
,
0001
0010
0001
0000
0100
0010
0100
0000
1000
0010
1000
0000
0001
0100
0001
0000
,
0010
0100
0010
0000
1000
0100
1000
0000
0011
0000
0011
0000
0011
0000
0110
0000
,
1000
0000
0000
0001
0000
0000
0010
0000
0001
0000
0000
1000
0000
0000
0010
0000
,
0100
0001
0100
0001
0100
0001
0100
0001
0100
0001
0100
0001
0100
0001
0100
0001
,
0100
0010
0001
1000
0100
0010
0001
1000
0010
0100
0001
1000
0010
0100
0001
1000
,
0001
0010
0100
1000
0001
0010
0100
1000
0010
0100
0001
1000
0010
0100
0001
1000
,
0001
0100
0010
1000
0001
0100
0010
1000
0001
0010
0100
1000
0010
0100
0001
0010
,
0100
0010
0100
0010
0100
0010
0100
0010
0100
0010
0100
0010
0100
0000
0000
0000
,
1001
0000
0200
0000
0020
0300
2000
0030
,
0002
3000
0000
0013
0002
0000
1000
1000
,
2003
0000
0000
3002
0000
0000
1003
0000
,
0001
0100
0002
0000
0000
0000
0000
0000
0000
0000
0000
0000
0000
0000
0000
0000
,
2003
0000
0000
3020
0000
0000
0130
0000
,
0001
0010
0000
1000
0000
0100
0000
0000
0001
0000
0000
0000
1000
0000
0000
0000
,
0001
1000
0001
1000
0001
1000
0001
1000
0001
1000
0001
1000
0001
1000
0001
1000
,
0001
0010
0100
1000
0100
0010
0001
0010
0100
1000
0100
0010
0001
0010
0100
1000
,
0001
0010
1000
0010
0001
0010
1000
0010
0001
0100
1000
0100
0001
0100
1000
0100
,
0001
0010
1000
0100
0001
0010
0001
0100
1000
0100
0001
0010
0001
1000
0100
1000
,
0020
0000
0000
0100
0000
0000
0100
0000
,
2030
0000
0000
0010
,
3002
0000
0000
0100
0000
0000
0100
0000
,
0023
0000
1000
1000
0000
0000
0000
0000
,
0230
0000
0000
0001
0000
0000
0001
0000
,
2300
0000
0000
0100
,
3002
0000
0000
0100
0000
0000
1000
0000
,
0023
0000
0000
0000
0000
0000
0000
0030
,
2200
0000
0000
0000
,
0002
0000
0000
0003
3300
0000
0000
0000
,
0202
0000
0000
0000
,
0020
0000
0000
0030
0303
0000
0000
0000
,
2020
0000
0000
0000
,
0200
0000
0000
0300
3030
0000
0000
0000
,
0202
0000
0000
0000
,
2020
0000
3333
0000
,
1000
0001
0000
0010
0001
0100
0000
1000
,
0010
0100
0000
0001
0010
0001
1001
0000
,
0100
0010
0000
1000
0001
0010
0000
0001
,
0100
0010
0000
1000
0010
0100
0101
0000
,
1100
0110
1010
0101
,
0011
0110
1001
0101
,
1000
0100
1000
0100
1000
0100
1000
0100
1000
0100
1000
0100
1000
0100
1000
0100
,
0001
0100
0001
0100
0001
0100
0001
0100
0001
0100
0001
0100
0001
0100
0001
0100
,
0002
0000
0000
0000
,
0000
0000
0000
0003
0001
0000
0001
0000
,
1000
0010
0100
0001
1000
0001
0100
0010
,
1000
0001
0010
0001
0100
0010
1000
0001
,
0020
0000
0000
0230
0000
0000
1300
0000
,
0020
0000
0000
0230
0000
0000
0301
0000
,
0010
0001
1000
0010
0100
0010
1000
0100
,
0010
0001
0100
0001
1000
0010
0100
0001
,
0020
0000
0001
0000
,
0100
0000
0001
0031
,
1000
0010
0100
0001
0010
0001
1000
0010
,
0100
0010
1000
0100
0010
0001
0100
0001
,
1000
0100
0010
0100
1000
0001
0100
0001
,
0010
0100
1000
0100
0010
0001
1000
0001
,
0100
0010
1000
0010
0100
0001
0010
0001
,
1000
0100
0010
0100
1000
0001
0100
0001
,
0010
0001
1000
0010
0100
0001
0010
0100
,
1000
0000
1000
0000
0100
0010
0100
0000
1000
0000
1000
0000
0010
0100
0010
0000
,
0001
1000
0001
0100
0010
1000
0010
0100
,
0001
0010
0100
1000
0001
0100
0001
0000
,
1000
0100
1000
0100
1000
0100
1000
0100
1000
0100
1000
0100
1000
0000
0000
0000
,
0010
0100
0010
0100
0010
0100
0010
0100
0010
0100
0010
0100
0010
0000
0000
0000
,
1000
0010
0100
0001
0010
0100
1000
0001
,
0100
0001
0010
0100
1000
0100
0010
0001
,
1000
0010
1000
0010
1000
0010
1000
0010
1000
0010
1000
0010
1000
0010
1000
0010
,
2000
0000
0000
3000
,
1001
1001
1001
1001
,
0101
0101
0101
0101
,
0011
0011
0011
0011
,
0110
0110
0110
0110
,
1100
0100
1100
1000
1100
0100
1100
1000
,
1010
1000
1010
0010
1010
1000
1010
0010
,
0011
0001
0011
0010
0011
0001
0011
0010
,
1010
1000
1010
0010
1010
1000
1010
0010
,
0202
0000
0000
0000
,
0000
0000
0000
0000
,
0000
0000
0000
0000
,
0000
0000
0000
0303
0000
0000
0000
0000
,
2000
0000
0000
0000
,
0000
0000
0000
0000
,
3020
0000
0000
0000
,
0000
0000
0000
0000
,
2030
0000
0000
0000
,
3200
0000
0320
0000
,
0032
0000
2003
0000
,
3200
0000
0320
0000
,
2000
0000
0000
0101
,
0202
0000
0000
0000
0000
0000
0000
0000
0000
0000
0000
0000
0000
0000
0000
0000
0000
0000
0000
0000
0000
0000
0000
0000
0000
0000
0000
0000
0000
0000
0000
0000
0000
0000
0000
0000
0000
0000
0000
0000
0000
0000
0000
3000
0003
0030
0300
0000
0000
0000
0000
0000
0000
0000
0000
0000
0000
0000
0000
0000
0000
0000
0000
0000
;

//---------------dance-single - ----------------
#NOTES:
     dance-single:
     :
     Medium:
     8:
     0.618,0.742,0.337,0.206,0.050,1637.000,146.000,89.000,54.000,0.000:
1000
0001
1000
0000
0000
0000
0000
0000
,
0022
0000
0000
0033
,
1010
0011
0000
0000
,
2100
0000
0010
3000
,
0220
0000
0000
0330
,
2200
0000
0000
0000
3300
0000
0001
1000
,
0001
0010
0010
0010
,
0100
1000
0000
0000
0001
0010
0000
0000
,
0100
0000
1000
0100
0010
0000
0100
0010
,
0001
0000
0010
0000
0001
1000
0001
1000
,
0001
0010
0100
1000
,
1010
0110
1010
0101
,
0001
0100
0001
0010
0100
1000
0010
0100
,
0010
1000
0100
0010
0002
0000
0000
0000
,
0203
0000
0000
0010
0000
0000
0001
0300
,
0010
1000
0000
0010
0000
0100
0000
0000
,
0001
0010
0001
1000
0001
0100
0010
1000
,
0010
0100
0001
0010
0100
1000
0001
0000
,
0100
0001
0010
0001
1000
0010
0100
0001
,
0020
0000
0000
0000
0000
0000
0000
0030
,
0001
1000
0010
0100
0001
0010
0100
0000
,
2100
0000
0001
0000
0010
0000
0100
3000
,
0022
0000
0000
0000
0000
0000
0000
0000
0000
0000
0000
0000
0000
0000
0000
0000
0000
0000
0000
0000
0000
0000
0000
0000
0000
0000
0000
0000
0000
0000
0000
0000
0000
0000
0000
0000
0000
0000
0000
0000
0000
0000
0000
0000
0000
0000
0000
0000
0000
0000
0000
0000
0000
0000
0000
0000
0000
0000
0000
0000
0000
0000
0000
0000
0000
0000
0000
0000
0000
0000
0000
0000
0000
0000
0000
0000
0000
0000
0000
0000
0000
0000
0000
0000
0000
0000
0000
0000
0000
0000
0000
0000
0000
0000
0000
0000
0000
0000
0000
0000
0000
0000
0000
0000
0000
0000
0000
0000
0000
0000
0000
0000
0000
0000
0000
0000
0000
0000
0000
0000
0000
0000
0000
0000
0000
0000
0000
0000
0000
0000
0000
0000
0000
0000
0000
0000
0000
0000
0000
0000
0000
0000
0000
0000
0000
0033
0000
0000
0000
0000
0000
0000
0000
0000
0000
0000
0000
0000
0000
0000
0000
0000
0000
0000
0000
0000
0000
0000
0000
0000
0000
0000
0000
0000
0000
0000
0000
0000
0000
0000
0000
0000
0000
0000
0000
0000
0000
0000
0000
0000
0000
0000
,
0100
0100
0100
0100
,
0100
0000
0000
0100
0000
0000
1000
0100
1000
0100
0000
0000
,
0001
0000
0000
0001
0000
0000
0001
0010
0001
0010
0000
0000
,
0100
0000
0000
0100
0000
0000
1000
0100
1000
0100
0000
0000
,
0010
0000
0000
0010
0000
0000
0100
0010
0100
0010
0000
0000
,
0001
0000
0000
0001
0000
0000
1000
0100
1000
0100
0000
0000
,
0010
0000
0000
0010
0000
0000
0001
0010
0001
0010
0000
0000
,
1000
0000
0000
1000
0000
0000
0100
1000
0100
1000
0000
0000
,
0010
0000
0000
0010
0000
0000
0001
1000
0001
1000
0000
0000
,
0010
0000
0000
0000
1000
0001
0000
0000
,
0020
0000
0000
0030
,
0000
1000
0100
0001
0010
0001
0100
1000
,
0002
0000
MMM0
0000
M0M0
0000
MMM0
0000
M000
0000
M000
0000
0000
0000
MMM0
0000
M000
0000
MMM0
0000
M000
0000
MMM0
0000
0000
0000
M0M0
0000
M0M0
0M00
MMM0
0M00
,
M0M0
M0M0
0000
MMM0
0M00
0M00
0M00
MMM0
0000
MMM0
M000
MMM0
00M0
MMM3
0000
0000
,
0001
0000
1000
0010
0000
0100
0001
0000
,
0010
0010
0010
0010
,
1000
0000
0100
0010
0000
0001
1000
0000
,
0001
0001
0001
0001
,
0200
0000
0000
0010
0000
0000
0010
0000
,
0010
0000
0000
0010
0000
0000
0310
0000
,
1000
0100
0010
0100
1000
0001
0100
0001
,
0010
0100
0010
0100
0010
0100
0010
0100
,
1000
0000
0010
0100
0000
0001
1000
0000
,
0011
0011
0011
0011
,
1000
0000
0100
0010
0000
0001
1000
0000
,
1010
1010
1010
1010
,
0001
0100
0001
1000
0010
0010
0100
0001
,
1000
0100
0010
0001
0001
1000
0010
0100
,
0002
0000
0000
0000
0000
0000
0000
0000
0000
0010
0000
0000
0000
0000
0000
0000
0003
0000
1000
0000
0000
0000
0000
0000
,
1100
0000
1010
0000
1100
0000
0010
0100
,
0001
0000
0000
0000
,
0000
0000
0000
0000
,
2000
0000
3100
0000
,
0000
0000
0000
0000
,
0001
0000
0100
0000
,
0010
0000
1000
0000
,
0001
0100
0010
1000
0010
0100
0001
0010
,
0100
1000
0010
0100
0001
0010
0001
1000
,
0010
0100
0001
0010
,
0001
1000
0010
0100
,
0001
1000
0001
0100
0010
1000
0010
0100
,
0001
0010
0100
1000
0001
0100
0001
0010
,
1000
0000
1000
0010
0100
0010
1000
0001
,
0100
0001
0010
0100
1000
0010
0100
0002
,
0020
0000
0000
0030
,
1000
1000
2003
0100
,
3001
0000
0010
0100
1000
0000
0010
0000
,
1000
0000
0010
0100
0001
0000
1000
0000
,
0010
0000
0100
0001
0010
0000
1000
0000
,
0010
0000
0001
0100
0001
0000
1000
0000
,
0010
0000
0001
1000
0100
0000
0010
0000
,
0100
0000
0001
0010
0100
0000
0001
0000
,
1000
0100
0010
1000
,
0002
0100
0100
0010
,
0013
0000
1000
0100
1000
0000
0001
0000
,
1000
0000
0001
0010
0001
0000
0010
0000
,
1000
0000
0010
1000
0010
0000
0100
0000
,
0001
0100
0010
1000
,
0010
0000
0100
0001
0100
0000
0010
0000
,
0001
0010
0100
0001
,
0100
0000
0001
0010
0100
0000
0001
0000
,
1000
0100
0010
0100
1000
0001
0010
0100
,
0010
0000
0100
0001
0010
0100
0010
0100
,
1000
0100
0010
0001
0100
1000
0100
0001
,
0020
0000
0000
0030
,
2010
0000
0000
3000
,
0110
0000
0100
0001
0000
0000
0011
0000
,
1001
0000
1000
0010
0000
0000
0110
0000
,
0202
0000
0000
0000
0000
0000
0000
0300
,
1003
0000
0000
0000
,
0100
0000
0010
1000
0010
0100
0001
0010
,
0001
0000
1000
0010
0000
0100
0010
1000
,
0100
0010
0001
0100
0010
1000
0010
1000
,
0100
0010
0100
0010
0100
1000
0100
0010
,
0001
0100
0001
0000
0001
0000
1000
0010
,
0100
0010
1000
0000
0100
0000
0001
0100
,
0001
1000
0010
0100
0010
1000
0100
0010
,
0001
0010
0001
0010
0001
0010
0001
0100
,
0001
1000
0010
0100
0010
1000
0100
0010
,
0100
1000
0001
0100
0001
0010
0100
1000
,
0100
0010
0001
1000
0010
0100
0010
1000
,
0100
0010
0001
0100
0001
1000
0001
0100
,
1000
0010
0001
0100
0001
0100
1000
0010
,
0001
1000
0100
0010
0100
0010
0001
0010
,
1010
0000
0000
0000
0100
0101
0000
0000
,
0010
1010
0000
0000
1000
1100
0000
0000
,
0001
0001
0001
0001
,
0001
1001
1010
1100
,
1001
0000
0001
0100
0000
0010
1000
0000
,
0100
0100
0100
0100
,
0001
0000
0010
0100
0000
1000
0001
0000
,
1000
1000
1000
1000
,
0020
0000
0000
0100
0000
0000
0100
0000
,
0100
0000
0000
0100
0000
0000
0130
0000
,
0001
0010
0100
0010
0001
1000
0010
1000
,
0100
0010
0100
0010
0100
0010
0100
0010
,
0001
0000
0100
0010
0000
1000
0001
0000
,
1100
1100
1100
1100
,
0001
0000
0010
0100
0000
1000
0001
0000
,
0101
0101
0101
0101
,
1000
1000
0010
1000
0100
0100
0010
0001
,
0100
0100
0010
1000
0100
0100
0010
0001
,
2000
0000
0000
0000
0000
0000
0000
0000
0000
0100
0000
0000
0000
0000
0000
0000
3000
0000
0001
0000
0000
0000
0000
0000
,
0000
0000
0100
0000
0010
1000
0010
0200
,
0001
0000
0000
0000
,
0010
0010
0000
0000
0000
0000
0300
0000
,
0001
1000
0001
0100
0010
1000
0010
0100
,
0001
0010
0100
1000
0100
0010
0001
0100
,
0001
0000
1000
0010
0000
0000
0100
0000
,
0001
0000
0010
0000
0001
0000
1000
0010
,
0100
0000
0001
1000
0001
1000
0001
1000
,
0001
0010
0000
0000
0101
0000
0000
0000
0100
0010
0000
0000
1010
0000
0000
0000
,
0001
0100
0010
1000
0100
0010
0001
0100
,
0100
0010
1000
0010
0100
0001
0010
0100
,
0100
1000
0010
0100
0010
1000
0100
0010
,
0010
0001
1000
0001
0100
0001
0010
0001
,
0001
1000
0010
0100
0010
1000
0100
0010
,
0010
0001
1000
0001
0100
0010
1000
0100
,
0010
0000
0000
0000
,
0001
0000
1001
0010
,
1100
0000
0100
0010
0001
0000
0110
0000
,
0011
0000
0100
0010
1000
0000
1001
0000
,
0101
0000
0010
1000
0100
0000
0011
0000
,
1100
0000
1000
0010
1000
0000
0011
0000
,
0110
0000
1000
0001
0010
0000
1100
0000
,
0110
0000
1000
0100
0010
0000
1100
0000
,
0101
0110
0101
0101
,
2000
0010
0010
0000
3020
0000
0100
0030
,
0110
0000
0001
0010
0001
0000
1010
0000
,
0101
0000
1000
0100
1000
0000
0110
0000
,
0011
0000
0100
0001
0100
0000
0011
0000
,
1100
1010
0101
0011
,
0110
0000
0010
1000
0010
0000
0101
0000
,
1100
0110
0011
1010
,
0110
0000
1000
0100
0010
0000
1001
0000
,
0001
0010
0100
0010
0001
1000
0100
0010
,
0100
0000
0010
1000
0100
0010
0100
0010
,
0001
0010
0100
1000
0010
0001
0010
1000
,
0200
0000
0000
0010
0000
0000
0300
0000
,
0102
0000
0000
1000
0000
0000
0003
0000
,
0110
0000
0010
1000
0000
0000
1100
0000
,
1001
0000
0001
0100
0000
0000
0110
0000
,
1000
0100
0001
0000
1000
0010
0001
0000
,
1001
0000
0000
0000
,
0010
0001
0000
1000
0010
0100
0001
0000
,
1000
0010
0000
0100
0001
0010
0100
0000
,
1000
0010
0000
0100
0001
0100
0001
0000
,
1000
0010
0000
0100
0010
1000
0100
0000
,
0010
0001
0000
0100
0001
1000
0010
0000
,
0100
0010
0000
1000
0100
0010
0001
0000
,
0100
0010
0000
0001
0010
0100
1000
0000
,
0001
0100
0001
0010
0100
1000
0010
0200
,
0001
0001
0001
0001
0001
0001
0001
0001
,
0010
0010
0010
0010
0010
0310
0010
0010
,
0010
0100
0000
0000
1000
0100
0000
0000
0001
0010
0000
0000
1000
0001
0000
0000
,
1000
0010
0000
0100
0000
0001
0000
0000
,
0010
0001
1000
0010
0100
0010
1000
0100
,
0001
0001
0001
0100
0100
0100
0010
0010
,
2020
0000
0000
3030
0202
0000
0000
0303
,
2020
0000
0000
3030
0202
0000
0000
0300
,
0023
0000
0000
0000
,
0000
0000
0000
0030
,
2000
0000
0000
3000
,
0020
0000
0000
0030
,
0200
0000
0000
0300
,
0002
0000
0000
0003
,
0020
0000
0000
0030
,
2000
0000
0000
3000
,
0200
0000
0000
0300
,
0020
0000
0000
0130
,
2100
0010
0000
0000
0000
0000
3000
0000
,
0102
1000
0000
0000
0000
0000
0003
0000
,
2020
0000
0000
0000
0000
3030
0000
0000
,
0110
0000
0101
0000
,
0022
0000
0000
0033
,
1000
0010
1000
0000
0100
0000
0010
0001
,
0100
0000
0001
1000
0001
1000
0001
2000
,
0002
0000
0000
3003
,
1000
0010
0100
0010
1000
0100
0010
0001
,
0100
0001
0100
0001
0100
1000
0010
0100
,
0001
0010
1000
0100
0001
0010
0100
1000
,
0010
0100
0001
0100
0010
1000
0010
0000
,
0001
0010
1000
0100
0010
0100
0001
0010
,
0100
1000
0010
0100
0001
0000
0000
0000
,
0010
0100
1000
0001
0100
0010
0100
1000
,
0100
0001
0100
1000
0010
0100
0010
1000
,
0010
0001
0100
0010
0100
1000
0100
0001
,
0010
1000
0100
0010
0100
0001
0100
0010
,
1000
0010
0100
0010
0100
0001
1000
0100
,
0010
0001
0010
1000
0100
0010
0100
0000
,
0100
1000
0010
0100
0010
1000
0100
0001
,
0100
0001
0010
0100
2000
0000
0000
0000
,
0002
0000
0000
0000
0000
0000
0000
0000
0000
0000
0000
3000
0003
0000
0000
0000
,
0010
0001
0010
1000
0100
0010
0100
0001
,
0010
1000
0010
0100
0001
0010
0001
1000
,
0001
0100
0010
1000
0010
0100
0001
0010
,
0001
1000
0010
0100
0010
1000
0100
0010
,
0001
0100
0001
1000
0010
0100
0010
1000
,
0100
0010
0001
0001
0100
1000
0100
0100
,
0010
0001
1000
1000
0010
0100
0001
0001
,
1000
0000
0000
0010
0000
0000
0100
0000
0001
0000
0000
0010
0000
0000
0001
0000
,
2000
0000
0000
0000
0000
3000
1000
1000
,
0010
0100
0001
0010
0001
1000
0010
0100
,
0010
1000
0100
0010
0100
1000
0001
0200
,
0001
0010
0001
0010
0001
0010
0001
0310
,
1000
0000
0100
0020
0000
0000
0000
0030
,
0001
0100
0001
1000
0010
0100
0010
1000
,
0100
0010
0001
1000
0001
0100
0001
0010
,
0100
0000
0000
0000
,
1000
0000
0001
0000
,
0010
0001
0000
1000
0010
0100
0010
1000
,
0100
0010
0100
1000
0001
0100
0001
0010
,
0001
0001
1000
1000
0010
0010
0100
0100
,
0001
0001
1000
1000
0010
0010
0100
0100
,
0001
0010
0001
1000
0010
0100
0010
1000
,
0100
0010
0100
1000
0001
0001
0001
0000
,
0010
0010
0010
0010
0010
0010
0010
0010
,
0100
0100
0100
0100
1000
1000
1000
1000
,
0001
0100
0001
0010
0100
1000
0010
0100
,
0010
1000
0100
0010
0001
0100
0001
0000
,
0010
0100
0001
1000
0010
0100
0001
1000
,
0010
0100
0010
1000
0100
0000
0010
0000
,
0001
0010
1000
0010
0100
0001
0010
0001
,
1000
0010
0100
0001
0010
0100
1000
0010
,
0200
0000
0000
0000
,
0002
0000
0000
0303
,
0010
1000
0010
0100
0001
0010
0100
1000
,
0010
0100
0001
0010
0001
0001
0001
0001
,
1000
0000
0000
0010
0000
0000
0100
0000
0001
0000
0000
1000
0000
0000
0001
0000
,
1000
0010
0100
0010
1000
0100
0010
0001
,
0100
0001
0010
0001
1000
0010
0100
0010
,
1000
0100
0010
0001
1000
0001
0100
0001
,
0010
0100
1000
0010
0100
0001
0010
0001
,
1000
0001
0100
0010
1000
0010
0100
0001
,
0010
0100
1000
0010
,
0100
0001
0010
0001
,
1000
0010
0100
0001
,
0010
0001
1000
0010
,
0100
0010
1000
0001
,
0010
0001
1000
0010
,
0100
0001
1000
0010
0100
0001
0100
0010
,
1000
0010
0001
0100
1000
0010
0001
0100
,
0001
0100
1000
0010
0100
0001
0010
0100
,
0110
0001
1010
0001
0110
1000
0011
0100
,
2000
0000
0000
0000
,
3002
0000
0000
0000
,
0023
0000
0000
0000
,
0230
0000
0000
0000
,
0320
0000
0000
0000
,
0032
0000
0000
0000
,
0023
0000
0000
0000
,
2030
0000
0000
0000
,
3002
0000
0000
0000
,
0023
0000
0000
0000
,
0230
0000
0000
0000
,
0302
0000
0000
0000
,
2003
0000
0000
0000
,
3020
0000
0000
0000
,
0230
0000
0000
0000
,
2000
0000
0000
3300
,
1001
1000
0000
0001
0011
0001
0000
0100
,
0101
0100
0000
0010
1010
0010
0110
0000
,
0101
0001
0000
0010
0011
0010
0000
1000
,
1010
1000
0000
0010
0110
0010
0011
0000
,
1000
0010
0100
0001
,
0010
0001
1000
0010
,
0100
0001
0100
0010
0100
0001
0100
0010
,
0100
0001
0100
0010
0100
0001
0100
0010
,
0200
0000
0000
0000
,
0000
0300
1001
1001
,
0001
0000
0010
0100
1000
0000
0010
0000
,
1000
0000
0010
0100
0001
0000
1000
0000
,
0010
0000
0100
0001
0010
0000
1000
0000
,
0010
0000
0001
0100
0001
0000
1000
0000
,
0010
0000
0001
1000
0100
0000
0010
0000
,
0100
0000
0001
0010
0100
0000
0001
0000
,
1000
0100
0010
1000
,
0002
0100
0100
0010
,
0013
0000
1000
0100
1000
0000
0001
0000
,
1000
0000
0001
0010
0001
0000
0010
0000
,
1000
0000
0010
1000
0010
0000
0100
0000
,
0001
0100
0010
1000
,
0010
0000
0100
0001
0100
0000
0010
0000
,
0001
0010
0100
0001
,
0100
0000
0001
0010
0100
0000
0001
0000
,
1000
0100
0010
0100
1000
0001
0010
0100
,
0010
0000
0100
0001
0010
0100
0010
0100
,
1000
0100
0010
0001
0100
1000
0100
0001
,
0020
0000
0000
0030
,
2010
0000
0000
3000
,
0110
0000
0100
0001
0000
0000
0011
0000
,
1001
0000
1000
0010
0000
0000
0110
0000
,
0001
1000
0001
1000
0001
1000
0001
1000
,
0002
0000
0000
0003
,
1010
0110
0101
0011
,
1010
0110
0101
1100
,
0110
0011
1010
0110
,
0101
1010
0110
0011
,
1000
0010
0100
0001
0100
1000
0010
0100
,
0001
0010
1000
0001
0100
0001
0010
0100
,
0010
0100
0001
1000
0010
0001
0010
1000
,
0100
0010
0100
1000
0100
0001
0010
0100
,
2200
0000
0000
0000
,
0000
0000
0000
0000
,
0000
0000
0000
0000
,
0000
3300
0000
0000
,
1100
0000
0000
0000
,
0000
0000
0000
0001
,
0011
0000
0000
0000
,
0000
0000
0000
0000
,
1100
0000
0000
0000
,
0000
0000
0000
0000
,
0011
0000
0110
0000
,
1100
0000
0011
0000
,
0110
0000
0000
0110
,
0110
0000
0000
0000
;
